You need to enable JavaScript to run this app.

Skip to main content

deneme1e308a3e089a7e48.png

Dehşetin Yüzü (The Nun) 2018 BDRip 1080p X264 DD 5.1 Türkçe Dublaj Film İndir

  • Dehşetin Yüzü (The Nun) 2018 BDRip 1080p X264 DD 5.1 Türkçe Dublaj Film İndir

    Kurucu
    Dehşetin Yüzü (The Nun) 2018 BDRip 1080p X264 DD 5.1 Türkçe Dublaj Film İndir

    [Resim: dehetinyz68jx6.jpg]

    Dehşetin Yüzü (The Nun) İndir - Dehşetin Yüzü (The Nun) Türkçe Dublaj İndir - Dehşetin Yüzü (The Nun) Türkçe Altyazılı İndir - Dehşetin Yüzü (The Nun) HD İndir



    [Resim: imdb.png]

    https://www.imdb.com/title/tt5814060/

    [Resim: hakkinda.png]

    Dehşetin Yüzü, bir manastırda gerçekleşen intihar olayını araştırmaya giden bir rahip ile çırağın yaşadıklarını konu ediyor. Romanya'daki bir manastırda yaşayan genç bir rahibenin intihar etmesi, sorunlu geçmişinin etkisinden kurtulamayan bir rahip ile nihai yeminini etmenin eşiğindeki bir çırak Vatikan tarafından bölgeye gönderilir. İkilinin amacı olayı araştırmaktır. Ancak birlikte, manastırın korkunç sırrını keşfederler. Hayatlarının yanı sıra inançlarını ve ruhlarını da tehlikeye atan ikili, şeytani rahibe biçiminde boy gösteren kötü niyetli Valak ile karşı karşıya kalır. Manastır, yaşam ve lanet arasında korkunç bir savaş alanı haline gelecektir...Korku Seansı serisinin spin-offu Dehşetin Yüzü filminin yönetmen koltuğunda Corin Hardy oturuyor. Filmin başrollerini Rahip Burke olarak Demian Bichir ve Rahibe Irene olarak Taissa Farmiga üstlenirken, kadroda Rahibe Victoria olarak Charlotte Hope, Rahibe Oana olarak Ingrid Bisu ve "Korku Seansı 2"nin yıldızı Rahibe Valak olarak Bonnie Aarons yer alıyor. Filmin görüntü yönetmenliğini ise Maxime Alexandre üstleniyor.

    [Resim: resimler.png]

    [Resim: dehetinyz1d4j6u.jpg]

    [Resim: dehetinyz2j4k8s.jpg]

    [Resim: dehetinyz33lkk8.jpg]

    [Resim: dehetinyz4d9krr.jpg]

    Medya Bilgisi

    Kod:
    "Video Kaynak: "The.Nun.2018.REMUX.BluRay.1080p.AVC.Atmos.TrueHD7.1-iFT
    "TRses Kaynak: "BD CEE 1080p

    General : D:\Riplerim\The.Nun.2018.REMUX.BluRay.1080p.AVC.Atmos.TrueHD7.1-iFT\Dehşetin Yüzü (The Nun) 2018 BDRip 1080p X264 DD 5.1 [TR] viphane.com.mkv
    Format : Matroska at 8 656 kb/s
    Length : 5.84 GiB for 1 h 36 min 34 s 848 ms

    Video #0 : AVC at 8 000 kb/s
    Aspect : 1920 x 800 (2.400) at 23.976 fps

    Audio #0 : AC-3 at 640 kb/s
    Infos : 6 channels, 48.0 kHz
    Language : tr

    Text #1
    ID : 3
    Format : PGS
    Muxing mode : zlib
    Codec ID : S_HDMV/PGS
    Codec ID/Info : Picture based subtitle format used on BDs/HD-DVDs
    Duration : 1 h 35 min
    Bit rate : 5 247 b/s
    Count of elements : 1272
    Stream size : 3.59 MiB (0%)
    Title : viphane.com
    Language : Turkish
    Default : No
    Forced : No

    Text #2
    ID : 4
    Format : PGS
    Muxing mode : zlib
    Codec ID : S_HDMV/PGS
    Codec ID/Info : Picture based subtitle format used on BDs/HD-DVDs
    Duration : 1 h 35 min
    Bit rate : 120 b/s
    Count of elements : 38
    Stream size : 84.2 KiB (0%)
    Title : viphane.com
    Language : Turkish
    Default : No
    Forced : No

    Text #3
    ID : 5
    Format : PGS
    Muxing mode : zlib
    Codec ID : S_HDMV/PGS
    Codec ID/Info : Picture based subtitle format used on BDs/HD-DVDs
    Duration : 1 h 35 min
    Bit rate : 7 918 b/s
    Count of elements : 1885
    Stream size : 5.42 MiB (0%)
    Title : viphane.com
    Language : frs
    Default : Yes
    Forced : No

    Text #4
    ID : 6
    Format : PGS
    Muxing mode : zlib
    Codec ID : S_HDMV/PGS
    Codec ID/Info : Picture based subtitle format used on BDs/HD-DVDs
    Duration : 1 h 35 min
    Bit rate : 5 074 b/s
    Count of elements : 1410
    Stream size : 3.47 MiB (0%)
    Title : viphane.com
    Language : French
    Default : No
    Forced : No

    Text #5
    ID : 7
    Format : PGS
    Muxing mode : zlib
    Codec ID : S_HDMV/PGS
    Codec ID/Info : Picture based subtitle format used on BDs/HD-DVDs
    Duration : 1 h 35 min
    Bit rate : 5 095 b/s
    Count of elements : 1272
    Stream size : 3.48 MiB (0%)
    Title : viphane.com
    Language : Portuguese
    Default : No
    Forced : No

    Text #6
    ID : 8
    Format : PGS
    Muxing mode : zlib
    Codec ID : S_HDMV/PGS
    Codec ID/Info : Picture based subtitle format used on BDs/HD-DVDs
    Duration : 1 h 35 min
    Bit rate : 49 b/s
    Count of elements : 14
    Stream size : 34.8 KiB (0%)
    Title : viphane.com
    Language : French
    Default : No
    Forced : No

    Yorum Yapmayı Unutmayınız.
    Herkese İyi Seyirler.
    [Resim: fragman.png]




    [Resim: linkler.png]

    Hide Post

    İşimiz Gücümüz Film!
    █║▌│ █║▌ ║││█║█║
    VİPHANE.COM
    Son Düzenleme: 29-06-2020,02:31, Düzenleyen: RACON.

    Site ile ilgili her türlü sorunlarınız için info@viphane.com adresine e-mail gönderiniz.

    İçerik sağlayıcı paylaşım sitesi olarak hizmet veren Film indir | HD 1080p ve 720p Türkçe Dublaj Filmler İndir sitemizde 5651 sayılı kanunun 8. maddesine ve T.C.K'nın 125. maddesine göre tüm üyelerimiz yaptıkları paylaşımlardan kendileri sorumludur. Sitemiz hakkında yapılacak tüm hukuksal şikayetleri bağlantısından bize ulaşıldıktan en geç 3 (üç) gün içerisinde ilgili kanunlar ve yönetmenlikler çerçevesinde tarafımızca incelenerek, gereken işlemler yapılacak ve site yöneticilerimiz tarafından bilgi verilecektir.

    evlilik sitesi>