Film indir | HD 1080p ve 720p Türkçe Dublaj Filmler İndir Film İndir BRRiP-BDRiP-HDRiP Filmler v önek Downton Abbey (2019) DVD9 PAL Türkçe Dublaj Film İndir
Film ve dizi yüklemeleri bize aittir, izinsiz başka sitelerde paylaşılması yasaktır! - Tüm dosyalardaki rar şifremiz: viphane.com
Daha Kapsamlı ve İsabetli Arama İçin Filmin veya Dizinin İMDB Linkini Aratın.
İMDB Linki İle Arama Nasıl Yapılır ? | Gelişmiş Arama Sayfası


önek Downton Abbey (2019) DVD9 PAL Türkçe Dublaj Film İndir
#1
    (Son Düzenleme: 24-02-2020,05:11, Düzenleyen: Wylde.)

[Resim: afisvaj8x.jpg]
Downton Abbey İndir - Downton Abbey Türkçe Dublaj İndir - Downton Abbey Türkçe Altyazılı İndir - Downton Abbey HD İndir - Downton Abbey dvd indir

IMDb
Kod:
https://www.imdb.com/title/tt6398184/

Hakkında
İngiliz monarşisinin en tepesindeki isim, Kraliçe Elizabeth’in en sevdiği dizi olduğu açıklanan, 2010-2015 yılları arasında yayınlanan üç Altın Küre ödüllü Downton Abbey, 1920'li yıllarda hem dünya savaşının etkisiyle hem de sınıf çatışmalarıyla çalkanan bir toplumda, İngiliz soylusu bir evin içindeki hizmetkarlar ve ev sahipleri arasındaki ilişikiyi konu ediniyordu. Filmi de aynı konuyu devam ettirecek.

Eleştirmenlerden yüksek notlar almayı başaran dizinin ana oyuncuları kamera karşısına geri dönüyor. Violet Crawley rolündeki usta oyuncu Maggie Smith, Robert Crawley rolündeki Altın Küre adayı oyuncu Hugh Bonneville, Lady Edith Crawley rolündeki Laura Carmichael, "Non-Stop" ile beyaz perdede gördüğümüz, Lady Mary Crawley rolündeki Michelle Dockery ve Cora Crawley rolündeki Elizabeth McGovern film için kadroya geri dönüyorlar. Orijinal kadroya ek olarak Oscar adayı Imelda Staunton, Geraldine James, David Haig, Tuppence Middleton, Simon Jones, Kate Phillips ve Stephen Campbell Moore da kadroda yer alıyor.

Resimler
[Resim: 1a3kw7.png]
[Resim: 2xqj0u.png]
[Resim: 3sgjps.png]
[Resim: 4ogkxy.png]

[Resim: minfo.png]
Kod:
Format : MPEG-PS
File size : 1 024 MiB
Duration : 18 min 39 s
Overall bit rate mode : Variable
Overall bit rate : 7 674 kb/s



Video
ID : 224 (0xE0)
Format : MPEG Video
Format version : Version 2
Format profile : Main@Main
Format settings : CustomMatrix / BVOP
Format settings, BVOP : Yes
Format settings, Matrix : Custom
Format settings, GOP : Variable
Duration : 18 min 39 s
Bit rate mode : Variable
Bit rate : 5 794 kb/s
Maximum bit rate : 9 800 kb/s
Width : 720 pixels
Height : 576 pixels
Display aspect ratio : 16:9
Frame rate : 25.000 FPS
Standard : PAL
Color space : YUV
Chroma subsampling : 4:2:0
Bit depth : 8 bits
Scan type : Progressive
Scan order : Top Field First
Compression mode : Lossy
Bits/(Pixel*Frame) : 0.559
Time code of first frame : 00:59:59:00
Time code source : Group of pictures header
GOP, Open/Closed : Open
GOP, Open/Closed of first frame : Closed
Stream size : 773 MiB (75%)



Audio #1
ID : 189 (0xBD)-128 (0x80)
Format : AC-3
Format/Info : Audio Coding 3
Commercial name : Dolby Digital
Muxing mode : DVD-Video
Duration : 18 min 39 s
Bit rate mode : Constant
Bit rate : 384 kb/s
Channel(s) : 6 channels
Channel layout : L R C LFE Ls Rs
Sampling rate : 48.0 kHz
Frame rate : 31.250 FPS (1536 SPF)
Compression mode : Lossy
Stream size : 51.2 MiB (5%)
Service kind : Complete Main



Audio #2
ID : 189 (0xBD)-129 (0x81)
Format : AC-3
Format/Info : Audio Coding 3
Commercial name : Dolby Digital
Muxing mode : DVD-Video
Duration : 18 min 39 s
Bit rate mode : Constant
Bit rate : 384 kb/s
Channel(s) : 6 channels
Channel layout : L R C LFE Ls Rs
Sampling rate : 48.0 kHz
Frame rate : 31.250 FPS (1536 SPF)
Compression mode : Lossy
Stream size : 51.2 MiB (5%)
Service kind : Complete Main



Audio #3
ID : 189 (0xBD)-130 (0x82)
Format : AC-3
Format/Info : Audio Coding 3
Commercial name : Dolby Digital
Muxing mode : DVD-Video
Duration : 18 min 39 s
Bit rate mode : Constant
Bit rate : 384 kb/s
Channel(s) : 6 channels
Channel layout : L R C LFE Ls Rs
Sampling rate : 48.0 kHz
Frame rate : 31.250 FPS (1536 SPF)
Compression mode : Lossy
Stream size : 51.2 MiB (5%)
Service kind : Complete Main



Audio #4
ID : 189 (0xBD)-131 (0x83)
Format : AC-3
Format/Info : Audio Coding 3
Commercial name : Dolby Digital
Muxing mode : DVD-Video
Duration : 18 min 39 s
Bit rate mode : Constant
Bit rate : 384 kb/s
Channel(s) : 6 channels
Channel layout : L R C LFE Ls Rs
Sampling rate : 48.0 kHz
Frame rate : 31.250 FPS (1536 SPF)
Compression mode : Lossy
Stream size : 51.2 MiB (5%)
Service kind : Complete Main



Audio #5
ID : 189 (0xBD)-132 (0x84)
Format : AC-3
Format/Info : Audio Coding 3
Commercial name : Dolby Digital
Muxing mode : DVD-Video
Duration : 18 min 39 s
Bit rate mode : Constant
Bit rate : 192 kb/s
Channel(s) : 2 channels
Channel layout : L R
Sampling rate : 48.0 kHz
Frame rate : 31.250 FPS (1536 SPF)
Compression mode : Lossy
Stream size : 25.6 MiB (3%)
Service kind : Complete Main



Text #1
ID : 189 (0xBD)-32 (0x20)
Format : RLE
Format/Info : Run-length encoding
Muxing mode : DVD-Video



Text #2
ID : 189 (0xBD)-33 (0x21)
Format : RLE
Format/Info : Run-length encoding
Muxing mode : DVD-Video



Text #3
ID : 189 (0xBD)-34 (0x22)
Format : RLE
Format/Info : Run-length encoding
Muxing mode : DVD-Video



Text #4
ID : 189 (0xBD)-35 (0x23)
Format : RLE
Format/Info : Run-length encoding
Muxing mode : DVD-Video



Text #5
ID : 189 (0xBD)-36 (0x24)
Format : RLE
Format/Info : Run-length encoding
Muxing mode : DVD-Video



Text #6
ID : 189 (0xBD)-37 (0x25)
Format : RLE
Format/Info : Run-length encoding
Muxing mode : DVD-Video



Text #7
ID : 189 (0xBD)-38 (0x26)
Format : RLE
Format/Info : Run-length encoding
Muxing mode : DVD-Video



Text #8
ID : 189 (0xBD)-39 (0x27)
Format : RLE
Format/Info : Run-length encoding
Muxing mode : DVD-Video



Text #9
ID : 189 (0xBD)-40 (0x28)
Format : RLE
Format/Info : Run-length encoding
Muxing mode : DVD-Video



Text #10
ID : 189 (0xBD)-41 (0x29)
Format : RLE
Format/Info : Run-length encoding
Muxing mode : DVD-Video



Text #11
ID : 189 (0xBD)-42 (0x2A)
Format : RLE
Format/Info : Run-length encoding
Muxing mode : DVD-Video



Text #12
ID : 189 (0xBD)-43 (0x2B)
Format : RLE
Format/Info : Run-length encoding
Muxing mode : DVD-Video



Text #13
ID : 189 (0xBD)-44 (0x2C)
Format : RLE
Format/Info : Run-length encoding
Muxing mode : DVD-Video



Text #14
ID : 189 (0xBD)-47 (0x2F)
Format : RLE
Format/Info : Run-length encoding
Muxing mode : DVD-Video



Text #15
ID : 189 (0xBD)-48 (0x30)
Format : RLE
Format/Info : Run-length encoding
Muxing mode : DVD-Video



Text #16
ID : 189 (0xBD)-49 (0x31)
Format : RLE
Format/Info : Run-length encoding
Muxing mode : DVD-Video

[Resim: fragman.png]





[Resim: linkler.png]

Hide Post

Everyone's alive but eyes are not open
Our tech is smart, yet we're a little broken

Wondering when our upgrade comes
I need to turn
#2
   
SAOLASIN


Konu ile Alakalı Benzer Konular
Konular Yazar Yorumlar Okunma Son Yorum
  önek 45 25 #KusursuzCinayet (Sansürsüz) 2019 TR Web-DL x264 AC3 Yerli Film İndir RACON 1 16 4 saat önce
Son Yorum: ulaz
  önek Komşu Kızı - The Girl Next Door (2004) BDRip x264 DUAL Türkçe Dublaj Film İndir Wylde 2 154 6 saat önce
Son Yorum: Mustafa Kesgun
  önek Melekler Şehri - City of Angels (1998) Türkçe Dublaj İndir RACON 5 519 11 saat önce
Son Yorum: ksklancer
  önek Hemen Döneriz (Sansürsüz) 2019 TR Web-DL x264 AC3 Yerli Film İndir RACON 0 13 Bugün,01:45
Son Yorum: RACON
  önek Parazit - Body Snatchers (1993) 576p TR BDRip x264 AC3 DD2.0 Türkçe Dublaj Film İndir RACON 2 117 24-10-2020,09:43
Son Yorum: RAMMSTEIN18

Hızlı Menü:


Konuyu Okuyanlar: 1 Ziyaretçi