Film indir | HD 1080p ve 720p Türkçe Dublaj Filmler İndir Film İndir 1080p Filmler v önek Buz Devri - Ice Age BoxSet TR 1080p BLuRay x264 Türkçe Dublaj Film İndir
Film ve dizi yüklemeleri bize aittir, izinsiz başka sitelerde paylaşılması yasaktır! - Tüm dosyalardaki rar şifremiz: viphane.com
Daha Kapsamlı ve İsabetli Arama İçin Filmin veya Dizinin İMDB Linkini Aratın.
İMDB Linki İle Arama Nasıl Yapılır ? | Gelişmiş Arama Sayfası


önek Buz Devri - Ice Age BoxSet TR 1080p BLuRay x264 Türkçe Dublaj Film İndir
#1
    (Son Düzenleme: 18-06-2020,02:06, Düzenleyen: RACON.)

[Resim: buzdevrirqkot.jpg]
Buz Devri İndir - Buz Devri Türkçe Dublaj İndir - Buz Devri Türkçe Altyazılı İndir - Buz Devri HD İndir

[Resim: imdb.png]

İndirme linklerini görebilmek için sitemize üye ol manız veya giriş yapmanız gerekiyor.Sitemize üyelikler ücretsizdir!

[Resim: hakkinda.png]

20 bin yıl önce, Dünya hiç olmadığı kadar harika ve bir o kadar da tehlikelidir. Buz Çağı'nın başlangıcı kadar tehlikeli olduğu zamanlarsa çok azdır. Gezegenin dev yaratıkları ve daha küçük olanlardan bazıları soğuktan korunmak için güneye göç etmektedirler. Bunlara katılmayan iki kişi vardır. İşleri kendi bildiği gibi halletmeyi seven avare mamut Manfred ve hiç bi şey yapmadan yaşamaya bayılan tembel Sid.

[Resim: resimler.png]

[Resim: buzdevri12002tr1080pbsnjc7.jpg]

[Resim: buzdevri22006tr1080pbwlk01.jpg]

[Resim: buzdevri32009tr1080pb9tjqa.jpg]

[Resim: buzdevri42012tr1080pbvsjag.jpg]

[Resim: buzdevri520161080pblu9ykz6.jpg]

Medya Bilgisi

Kod:
General

Complete name                            : /home/sb01/downloads/Buz Devri - Ice Age BoxSet TR 1080p BLuRay x264
Format                                   : Matroska
Format version                           : Version 4
File size                                : 1.11 GiB
Duration                                 : 1 h 21 min
Overall bit rate                         : 1 954 kb/s



Video
ID                                       : 1
Format                                   : AVC
Format/Info                              : Advanced Video Codec
Format profile                           : High@L4
Format settings                          : CABAC / 4 Ref Frames
Format settings, CABAC                   : Yes
Format settings, Reference frames        : 4 frames
Codec ID                                 : V_MPEG4/ISO/AVC
Duration                                 : 1 h 21 min
Bit rate                                 : 1 826 kb/s
Width                                    : 1 920 pixels
Height                                   : 1 040 pixels
Display aspect ratio                     : 1.85:1
Frame rate mode                          : Constant
Frame rate                               : 23.976 (24000/1001) FPS
Color space                              : YUV
Chroma subsampling                       : 4:2:0
Bit depth                                : 8 bits
Scan type                                : Progressive
Bits/(Pixel*Frame)                       : 0.038
Stream size                              : 1.01 GiB (91%)
Encoding settings                        : cabac=1 / ref=3 / deblock=1:0:0 / analyse=0x3:0x113 / me=hex / subme=7 / psy=1 / psy_rd=1.00:0.00 / mixed_ref=1 / me_range=16 / chroma_me=1 / trellis=1 / 8x8dct=1 / cqm=0 / deadzone=21,11 / fast_pskip=1 / chroma_qp_offset=-2 / threads=12 / lookahead_threads=2 / sliced_threads=0 / nr=0 / decimate=1 / interlaced=0 / bluray_compat=0 / constrained_intra=0 / bframes=4 / b_pyramid=2 / b_adapt=1 / b_bias=0 / direct=1 / weightb=1 / open_gop=0 / weightp=2 / keyint=240 / keyint_min=23 / scenecut=40 / intra_refresh=0 / rc_lookahead=40 / rc=2pass / mbtree=1 / bitrate=1826 / ratetol=1.0 / qcomp=0.60 / qpmin=0 / qpmax=69 / qpstep=4 / cplxblur=20.0 / qblur=0.5 / vbv_maxrate=25000 / vbv_bufsize=31250 / nal_hrd=none / ip_ratio=1.40 / aq=1:1.00
Default                                  : Yes
Forced                                   : No

Audio
ID                                       : 2
Format                                   : MPEG Audio
Format version                           : Version 1
Format profile                           : Layer 3
Format settings                          : Joint stereo / MS Stereo
Codec ID                                 : A_MPEG/L3
Codec ID/Hint                            : MP3
Duration                                 : 1 h 21 min
Bit rate mode                            : Constant
Bit rate                                 : 128 kb/s
Channel(s)                               : 2 channels
Sampling rate                            : 48.0 kHz
Frame rate                               : 41.667 FPS (1152 SPF)
Compression mode                         : Lossy
Delay relative to video                  : 2 s 0 ms
Stream size                              : 74.3 MiB (7%)
Encoding settings                        : -m j -V 4 -q 2 -lowpass 17 -b 128
Default                                  : Yes
Forced                                   : No

Text
ID                                       : 3
Format                                   : UTF-8
Codec ID                                 : S_TEXT/UTF8
Codec ID/Info                            : UTF-8 Plain Text
Default                                  : Yes
Forced                                   : No

[Resim: fragman.png]





[Resim: linkler.png]
Buz Devri 1

Hide Post





Buz Devri 2
Hide Post





Buz Devri 3
Hide Post





Buz Devri 4
Hide Post





Buz Devri 5
Hide Post

İşimiz Gücümüz Film!
█║▌│ █║▌ ║││█║█║
VİPHANE.COM


Konu ile Alakalı Benzer Konular
Konular Yazar Yorumlar Okunma Son Yorum
  önek Danger Close: The Battle of Long Tan (2019) 1080p WEBRip Türkçe Altyazılı İndir RACON 6 769 3 saat önce
Son Yorum: metlandus
  önek Araf 4 Meryem 2020 Yerli Sansürsüz 1080p x264 AAC Yerli Film İdir RACON 0 18 11 saat önce
Son Yorum: RACON
  The Nightingale 2018 1080p WEB-DL H264 Türkçe Altyazılı Film İndir Wylde 5 490 Dün,11:13
Son Yorum: kaskalak
  önek Hadi Gidelim - Onward (2020) 1080p WEB-DL H264 Türkçe Altyazılı Film İndir Wylde 6 808 Dün,10:39
Son Yorum: gokhan26
  Aşktan Kaçılmaz - Juliet, Naked (2018) 1080p BluRay Türkçe Dublaj Film İndir Wylde 1 192 Dün,01:16
Son Yorum: Mustafa Kesgun

Hızlı Menü:


Konuyu Okuyanlar: 1 Ziyaretçi